<?xml version="1.0" encoding="UTF-8"?>
<!DOCTYPE svg PUBLIC "-//W3C//DTD SVG 1.1//EN" "http://www.w3.org/Graphics/SVG/1.1/DTD/svg11.dtd">
<svg xmlns="http://www.w3.org/2000/svg" xml:space="preserve" width="160mm" height="46mm" version="1.1" style="shape-rendering:geometricPrecision; text-rendering:geometricPrecision; image-rendering:optimizeQuality; fill-rule:evenodd; clip-rule:evenodd"
viewBox="0 0 166000 42000"
 xmlns:xlink="http://www.w3.org/1999/xlink"
 xmlns:xodm="http://www.corel.com/coreldraw/odm/2003">
 <defs>
  <font id="FontID1" horiz-adv-x="739" font-variant="normal" style="fill-rule:nonzero" font-weight="400">
	<font-face 
		font-family="Century Gothic">
		<font-face-src>
			<font-face-name name="Century Gothic"/>
		</font-face-src>
	</font-face>
   <missing-glyph><path d="M0 0z"/></missing-glyph>
   <glyph unicode="а" horiz-adv-x="683" d="M605.006 530.993l0 -530.993 -67.9995 0 0 91.3297c-28.6796,-34.8295 -60.6782,-60.9906 -96.3472,-78.3272 -35.4933,-17.3366 -74.5007,-26.005 -116.651,-26.005 -75.0083,0 -139.181,27.1764 -192.343,81.5095 -53.1618,54.4894 -79.6744,120.497 -79.6744,198.493 0,76.1602 26.8445,141.504 80.5139,195.662 53.4937,54.177 117.998,81.3338 193.495,81.3338 43.4978,0 82.8371,-9.1564 118.174,-27.4887 35.1614,-18.3323 66.1643,-46.0163 92.833,-83.169l0 97.6553 67.9995 0zm-273.677 -52.9861c-37.9922,0 -73.1536,-9.33211 -105.172,-28.0159 -32.1548,-18.4885 -57.6521,-44.6497 -76.6482,-78.3272 -19.0156,-33.6581 -28.5039,-69.327 -28.5039,-107.007 0,-37.1527 9.4883,-72.8217 28.6601,-106.831 19.1718,-33.99 44.8254,-60.483 77.1754,-79.3229 32.3305,-18.9961 66.9842,-28.5039 104,-28.5039 37.1527,0 72.6655,9.33211 105.992,28.172 33.5019,18.8204 59.1749,44.1616 77.1754,76.3359 18.0004,31.9986 27.0006,68.1556 27.0006,108.334 0,61.1663 -20.1675,112.317 -60.6782,153.492 -40.335,41.1745 -90.0021,61.6739 -149.001,61.6739z"/>
   <glyph unicode="б" horiz-adv-x="669" d="M584.994 747.994l0 -64.9929c-32.6624,-5.66174 -88.4989,-9.664 -167.822,-12.0068 -57.3398,-1.99137 -101.677,-5.81793 -132.836,-11.4992 -31.1786,-5.83745 -58.3354,-16.6533 -81.5095,-32.8381 -22.9984,-16.3214 -42.5021,-40.8231 -58.3354,-73.6612 -15.8333,-32.8381 -25.6535,-69.6589 -29.6558,-110.17l-6.83313 -75.1645c18.6642,61.0101 49.1595,105.504 91.8373,133.832 42.5021,28.3477 89.8264,42.5021 141.661,42.5021 78.991,0 144.999,-27.6644 198.005,-82.8371 52.9861,-55.1532 79.4986,-120.829 79.4986,-197.165 0,-75.6526 -26.5126,-140.665 -79.3425,-195.154 -52.8299,-54.5089 -118.994,-81.8414 -198.337,-81.8414 -81.3338,0 -150.153,30.3391 -206.654,90.8416 -56.5003,60.5025 -84.6723,155.835 -84.6723,285.996 0,90.6659 10.3278,159.505 31.0029,206.165 20.8313,46.6605 44.4935,80.1624 71.3379,100.662 26.6687,20.4994 61.3225,36.6646 103.668,48.3395 42.4826,11.8311 122.001,18.9961 238.496,22.0027 35.8251,0.995685 65.9886,3.31895 90.4902,6.98932zm-36.0009 -485.484c0,58.6478 -20.4994,109.154 -61.6544,151.325 -40.9988,42.1702 -89.6703,63.1577 -146.014,63.1577 -56.1488,0 -104.664,-21.1632 -145.663,-63.4896 -41.155,-42.3264 -61.6544,-92.6768 -61.6544,-151.344 0,-58.1597 19.8161,-107.827 59.3311,-148.826 39.6517,-40.8231 88.9869,-61.342 147.986,-61.342 59.1749,0 108.666,20.5189 148.338,61.5177 39.4955,40.9988 59.3311,90.6659 59.3311,149.001z"/>
   <glyph unicode="в" horiz-adv-x="467" d="M230.491 0l-154.487 0 0 530.993 152.164 0c58.0036,0 99.8223,-13.3344 125.495,-39.8274 25.4974,-26.6687 38.3436,-57.8278 38.3436,-93.4968 0,-53.8451 -23.8379,-90.1779 -71.5136,-109.33 69.0147,-24.5017 103.512,-71.6698 103.512,-141.504 0,-97.831 -64.5048,-146.834 -193.514,-146.834zm-86.488 471.994l0 -164.991 44.6692 0c40.6669,0 67.3357,1.65948 79.6548,4.82224 12.5144,3.33847 24.1698,11.343 35.1809,24.0136 10.9916,12.8268 16.4971,29.6558 16.4971,50.819 0,22.0027 -5.68126,40.335 -17.1805,55.1727 -11.4992,14.9939 -23.4865,23.6622 -36.157,26.3369 -12.6706,2.49898 -38.6755,3.82656 -77.9954,3.82656l-44.6692 0zm0 -227.992l0 -185.998 73.505 0c34.6538,0 59.4873,2.16708 74.325,6.65743 14.8377,4.33416 27.6644,13.842 38.1679,28.5039 10.6597,14.662 15.9895,33.17 15.9895,55.6608 0,29.0115 -9.1564,52.0099 -27.4887,69.3466 -18.3323,17.1609 -42.5021,25.8292 -72.5093,25.8292l-101.989 0z"/>
   <glyph unicode="д" horiz-adv-x="605" d="M80.8262 58.0036l205.014 472.99 35.669 0 203.823 -472.99 63.6653 0 0 -126.003 -65.9886 0 0 67.9995 -439 0 0 -71.006 -67.9995 0 0 129.01 64.8172 0zm221.667 366.158l-155.327 -366.158 304.328 0 -149.001 366.158z"/>
   <glyph unicode="е" horiz-adv-x="649" d="M524.336 176.002l57.6717 -30.3391c-19.0156,-36.8208 -40.8426,-66.6719 -65.6762,-89.3384 -24.8336,-22.4908 -52.6737,-39.8274 -83.6571,-51.6585 -31.1786,-11.8311 -66.1838,-17.6685 -105.347,-17.6685 -86.9956,0 -154.819,28.3282 -203.823,85.0042 -49.0033,56.6564 -73.505,120.673 -73.505,191.992 0,67.1795 20.8313,127.174 62.3377,179.672 52.498,66.8281 122.996,100.33 211.163,100.33 90.8416,0 163.507,-34.3219 217.665,-102.829 38.4998,-48.3395 58.1597,-108.666 58.8431,-181.176l-479.998 0c1.32758,-61.4982 21.1632,-111.829 59.3311,-150.993 38.3241,-39.3393 85.668,-58.9992 141.817,-58.9992 27.1764,0 53.6694,4.66605 79.3425,13.9982 25.6731,9.33211 47.5,21.6708 65.5005,37.1723 18.0004,15.5015 37.5041,40.335 58.3354,74.8326zm0.66379 142.988c-9.17592,36.5085 -22.4908,65.5005 -40.0031,87.347 -17.6685,21.827 -40.8231,39.3198 -69.6589,52.6542 -28.8358,13.3344 -59.1749,20.0113 -90.8416,20.0113 -52.498,0 -97.4991,-16.6728 -135.159,-50.1747 -27.6644,-24.5017 -48.3395,-60.9906 -62.4939,-109.838l398.157 0z"/>
   <glyph unicode="к" horiz-adv-x="502" d="M76.004 530.993l67.9995 0 0 -223.658 247.32 223.658 93.6725 0 -268.503 -242.322 289.998 -288.671 -96.6596 0 -244.333 245.505 -21.4951 -18.9961 0 -226.509 -67.9995 0 0 530.993z"/>
   <glyph unicode="л" horiz-adv-x="554" d="M526.327 0l-71.4941 0 -179.341 387.165 -176.49 -387.165 -73.1731 0 242.498 530.993 12.163 0 245.837 -530.993z"/>
   <glyph unicode="м" horiz-adv-x="878" d="M654.341 530.993l19.6599 0 179.341 -530.993 -71.3379 0 -131.509 389.996 -204.662 -389.996 -12.6706 0 -204.662 391.675 -131.509 -391.675 -71.1622 0 181.176 530.993 18.4885 0 214.502 -415.318 214.346 415.318z"/>
   <glyph unicode="н" horiz-adv-x="598" d="M453.993 256.008l-309.99 0 0 -256.008 -67.9995 0 0 530.993 67.9995 0 0 -210.988 309.99 0 0 210.988 67.9995 0 0 -530.993 -67.9995 0 0 256.008z"/>
   <glyph unicode="о" horiz-adv-x="654" d="M327.834 543.996c81.8414,0 149.841,-29.4996 203.666,-88.655 49.0033,-53.8451 73.505,-117.667 73.505,-191.347 0,-73.9931 -25.8488,-138.654 -77.6635,-194.002 -51.678,-55.3289 -118.35,-82.9933 -199.508,-82.9933 -81.6657,0 -148.494,27.6644 -200.172,82.9933 -51.8342,55.3484 -77.6635,120.009 -77.6635,194.002 0,73.3488 24.5017,137.014 73.505,190.84 53.8256,59.5068 122.001,89.1626 204.33,89.1626zm-0.331895 -67.0038c-56.8322,0 -105.504,-20.8313 -146.327,-62.6501 -40.8426,-41.8383 -61.1663,-92.5011 -61.1663,-151.832 0,-38.1679 9.33211,-73.8369 27.8206,-107.007 18.6642,-32.9943 43.8297,-58.5112 75.4964,-76.5116 31.5105,-18.0004 66.34,-27.0006 104.176,-27.0006 37.836,0 72.6655,9.00021 104.156,27.0006 31.6667,18.0004 56.8322,43.5173 75.5159,76.5116 18.4885,33.17 27.8206,68.839 27.8206,107.007 0,59.3311 -20.4994,109.994 -61.4982,151.832 -40.8231,41.8188 -89.4945,62.6501 -145.995,62.6501z"/>
   <glyph unicode="р" horiz-adv-x="682" d="M76.9997 530.993l67.9995 0 0 -97.6553c27.0006,37.1527 58.0036,64.8367 93.1649,83.169 35.1614,18.3323 74.3445,27.4887 117.667,27.4887 75.4964,0 140.001,-27.1568 193.671,-81.3338 53.6694,-54.1575 80.4943,-119.502 80.4943,-195.662 0,-77.9954 -26.6687,-144.003 -79.8305,-198.493 -53.1618,-54.3332 -117.335,-81.5095 -192.499,-81.5095 -42.1702,0 -81.0019,8.84403 -116.495,26.3369 -35.5128,17.6685 -67.5114,43.8297 -96.1715,78.6591l0 -285.996 -67.9995 0 0 724.996zm273.833 -52.9861c-59.1749,0 -108.842,-20.4994 -149.158,-61.6739 -40.5107,-41.1745 -60.6782,-92.3254 -60.6782,-153.492 0,-40.1788 9.00021,-76.3359 27.0006,-108.334 18.0004,-32.1743 43.8297,-57.5155 77.3316,-76.3359 33.6776,-18.8399 69.1708,-28.172 106.343,-28.172 36.6646,0 71.1622,9.50782 103.493,28.5039 32.3305,18.8399 58.0036,45.333 77.1754,79.3229 19.1523,34.0095 28.6601,69.6785 28.6601,106.831 0,37.6799 -9.50782,73.3488 -28.5039,107.007 -18.9961,33.6776 -44.4935,59.8387 -76.6678,78.3272 -31.9986,18.6837 -67.16,28.0159 -104.996,28.0159z"/>
   <glyph unicode="с" horiz-adv-x="647" d="M592.003 420.667l-54.177 -33.6581c-46.9924,61.9863 -111.165,92.9892 -192.499,92.9892 -64.9929,0 -118.994,-20.8313 -161.984,-62.3377 -42.834,-41.4869 -64.3486,-91.8178 -64.3486,-151.168 0,-38.656 9.83971,-74.9888 29.6753,-108.998 19.6599,-33.99 46.8363,-60.5025 81.3338,-79.3229 34.3219,-18.8399 72.9974,-28.172 115.831,-28.172 78.3272,0 142.324,31.0029 191.992,93.0087l54.177 -35.669c-25.4974,-38.1679 -59.663,-67.6676 -102.497,-88.8308 -43.0097,-21.007 -91.8373,-31.5105 -146.678,-31.5105 -84.3209,0 -154.156,26.6687 -209.66,79.8305 -55.5046,53.3375 -83.169,117.998 -83.169,194.334 0,51.1704 13.0025,98.8462 39.0074,142.832 25.8292,44.0054 61.4982,78.3468 106.831,103.005 45.4892,24.6579 96.1715,36.9965 152.32,36.9965 35.3371,0 69.3466,-5.32985 102.185,-15.9895 32.6624,-10.6792 60.483,-24.6774 83.3252,-41.8383 22.9984,-17.1609 42.3264,-39.0074 58.3354,-65.5005z"/>
   <glyph unicode="т" horiz-adv-x="382" d="M17.0047 530.993l348.997 0 0 -58.9992 -140.997 0 0 -471.994 -67.9995 0 0 471.994 -140.001 0 0 58.9992z"/>
   <glyph unicode="ы" horiz-adv-x="670" d="M143.496 321.001l65.1686 0c51.8342,0 92.3449,-4.00226 121.669,-12.163 29.3239,-8.18024 54.6651,-26.1807 75.8283,-54.0013 21.1632,-27.8401 31.8424,-59.8387 31.8424,-95.9958 0,-43.6735 -15.3453,-81.0019 -45.9968,-112.181 -30.5148,-31.1591 -76.9997,-46.6605 -139.181,-46.6605l-176.822 0 0 530.993 67.4918 0 0 -209.992zm2.49898 -63.0015l0 -199.996 78.8349 0c92.833,0 139.162,32.5062 139.162,97.3234 0,18.508 -4.99795,36.6646 -14.9939,54.5089 -9.83971,17.8247 -24.5017,30.3391 -43.4978,37.5041 -19.1718,7.16503 -52.8299,10.6597 -101.169,10.6597l-58.3354 0zm387.009 272.993l67.9995 0 0 -530.993 -67.9995 0 0 530.993z"/>
   <glyph unicode="ь" horiz-adv-x="471" d="M143.496 321.001l65.1686 0c51.8342,0 92.3449,-4.00226 121.669,-12.163 29.3239,-8.18024 54.6651,-26.1807 75.8283,-54.0013 21.1632,-27.8401 31.8424,-59.8387 31.8424,-95.9958 0,-43.6735 -15.3453,-81.0019 -45.9968,-112.181 -30.5148,-31.1591 -76.9997,-46.6605 -139.181,-46.6605l-176.822 0 0 530.993 67.4918 0 0 -209.992zm2.49898 -63.0015l0 -199.996 78.8349 0c92.833,0 139.162,32.5062 139.162,97.3234 0,18.508 -4.99795,36.6646 -14.9939,54.5089 -9.83971,17.8247 -24.5017,30.3391 -43.4978,37.5041 -19.1718,7.16503 -52.8299,10.6597 -101.169,10.6597l-58.3354 0z"/>
   <glyph unicode="я" horiz-adv-x="444" d="M301.009 236.993l-48.6714 0 -152.672 -236.993 -73.8369 0 160.344 243.826c-39.8469,4.84176 -72.1774,20.0113 -97.011,45.333 -24.8336,25.1655 -37.1723,56.676 -37.1723,94.1801 0,46.8363 14.3496,83.3252 42.834,108.998 28.5039,25.8292 66.0081,38.656 112.181,38.656l162.004 0 0 -530.993 -67.9995 0 0 236.993zm0 235.001l-45.333 0c-43.8492,0 -73.3488,-2.83087 -88.5184,-8.33642 -14.9939,-5.48603 -27.0006,-14.9939 -35.8251,-28.4844 -8.82451,-13.5101 -13.3344,-31.6667 -13.3344,-54.3332 0,-21.8465 5.66174,-39.6712 17.1609,-53.8451 11.4992,-14.1544 24.3455,-22.8227 38.4998,-26.1611 13.9982,-3.16277 41.3502,-4.84176 82.0171,-4.84176l45.333 0 0 176.002z"/>
  </font>
  <font id="FontID0" horiz-adv-x="726" font-variant="normal" style="fill-rule:nonzero" font-style="normal" font-weight="500">
	<font-face 
		font-family="Acrom Medium">
		<font-face-src>
			<font-face-name name="Acrom Medium"/>
		</font-face-src>
	</font-face>
   <missing-glyph><path d="M0 0z"/></missing-glyph>
   <glyph unicode="-" horiz-adv-x="366" d="M306.998 256.002l0 63.9985 -247.994 0 0 -63.9985 247.994 0z"/>
   <glyph unicode="b" horiz-adv-x="653" d="M188.998 700.003l-100.002 0 0 -700.003 68.0024 0 6.00187 92.0018c37.0021,-59.0036 104.996,-98.0037 183.996,-98.0037 142.007,0 247.003,114.003 247.003,256.002 0,141.999 -104.996,257.001 -247.003,257.001 -66.9954,0 -125.999,-32.9982 -157.998,-82.0041l0 275.006zm149.998 -289c83.003,0 156,-66.0044 156,-161.003 0,-94.9987 -72.9972,-159.996 -156,-159.996 -82.995,0 -156.999,64.9974 -156.999,159.996 0,94.9987 74.0043,161.003 156.999,161.003z"/>
   <glyph unicode="c" horiz-adv-x="565" d="M314.997 506.002c-141.999,0 -255.994,-114.003 -255.994,-256.002 0,-141.999 113.995,-256.002 255.994,-256.002 78.9991,0 150.006,36.0032 197.006,92.0018l-60.0026 64.9974c-40.998,-41.997 -85.001,-60.9935 -137.004,-60.9935 -82.995,0 -156,64.9974 -156,159.996 0,94.9987 73.0053,159.996 156,159.996 52.0028,0 96.0057,-17.9976 137.004,-60.9935l60.0026 64.9974c-46.9999,55.9986 -118.007,92.0018 -197.006,92.0018z"/>
   <glyph unicode="d" horiz-adv-x="653" d="M563.998 0l0 700.003 -100.002 0 0 -275.006c-31.9992,49.0059 -90.9948,82.0041 -157.998,82.0041 -141.999,0 -246.995,-115.002 -246.995,-257.001 0,-141.999 104.996,-256.002 246.995,-256.002 78.9991,0 147.001,39.0001 184.004,98.0037l5.99381 -92.0018 68.0024 0zm-249.001 90.0039c-82.995,0 -156,64.9974 -156,159.996 0,94.9987 73.0053,161.003 156,161.003 83.003,0 156.999,-66.0044 156.999,-161.003 0,-94.9987 -73.9962,-159.996 -156.999,-159.996z"/>
   <glyph unicode="e" horiz-adv-x="604" d="M312.001 507.001c-155.001,0 -252.997,-115.002 -252.997,-257.001 0,-148 104.996,-256.002 258.999,-256.002 86.9989,0 159.996,35.0042 214.835,77.0012l-53.8396 58.0046c-46.9999,-28.0034 -102.999,-44.003 -160.995,-44.003 -89.0049,0 -156,50.9957 -156,139.002l380.833 0c11.9957,38.0011 9.99774,99.9936 -8.99878,141.999 -36.8329,86.9989 -113.834,141 -221.836,141zm0.998969 -91.0028c62.0005,0 107.002,-32.9982 127.997,-78.9991 7.99981,-15.0006 12.0037,-33.9972 12.0037,-48.9978l-287.002 0c4.00393,68.0024 62.0005,127.997 147.001,127.997z"/>
   <glyph unicode="h" horiz-adv-x="656" d="M353.997 507.001c-59.9945,0 -125,-23.9994 -159.996,-83.003l0 276.005 -100.002 0 0 -700.003 100.002 0 0 242c0,110.998 56.9976,169.003 144.995,169.003 81.0051,0 133,-44.003 133,-150.006l0 -260.997 100.002 0 0 266c0,148 -78.0001,241.001 -218.001,241.001z"/>
   <glyph unicode="i" horiz-adv-x="302" d="M154.002 553.002c32.9982,0 58.9956,23.9994 58.9956,54.0007 0,30.0013 -25.9974,52.9937 -58.9956,52.9937 -34.0052,0 -60.0026,-22.9924 -60.0026,-52.9937 0,-30.0013 25.9974,-54.0007 60.0026,-54.0007zm-51.0038 -553.002l100.002 0 0 500 -100.002 0 0 -500z"/>
   <glyph unicode="l" horiz-adv-x="281" d="M93.9997 0l100.002 0 0 700.003 -100.002 0 0 -700.003z"/>
   <glyph unicode="m" horiz-adv-x="1030" d="M727.999 507.001c-80.997,0 -157.998,-37.0021 -191.995,-116.001 -29.0023,75.0032 -96.0057,116.001 -187.001,116.001 -75.0032,0 -148,-31.9992 -185.003,-102.999l-7.00084 95.9977 -68.0024 0 0 -500 100.002 0 0 242c0,110.998 56.9976,169.003 145.004,169.003 80.997,0 133,-44.003 133,-150.006l0 -260.997 100.002 0 0 242c0,110.998 56.9976,169.003 145.994,169.003 80.0061,0 133,-44.003 133,-150.006l0 -260.997 100.002 0 0 266c0,148 -78.0001,241.001 -218.001,241.001z"/>
   <glyph unicode="n" horiz-adv-x="650" d="M349.003 507.001c-75.0032,0 -148,-31.9992 -185.003,-102.999l-7.00084 95.9977 -68.0024 0 0 -500 100.002 0 0 242c0,110.998 56.9976,169.003 145.004,169.003 80.997,0 133,-44.003 133,-150.006l0 -260.997 100.002 0 0 266c0,148 -78.0001,241.001 -218.001,241.001z"/>
   <glyph unicode="o" horiz-adv-x="631" d="M314.997 507.001c-141.999,0 -255.994,-115.002 -255.994,-257.001 0,-141.999 113.995,-256.002 255.994,-256.002 141.999,0 257.001,114.003 257.001,256.002 0,141.999 -115.002,257.001 -257.001,257.001zm0 -95.9977c83.003,0 156.999,-66.0044 156.999,-161.003 0,-94.9987 -73.9962,-159.996 -156.999,-159.996 -82.995,0 -156,64.9974 -156,159.996 0,94.9987 73.0053,161.003 156,161.003z"/>
   <glyph unicode="r" horiz-adv-x="431" d="M398 411.003l0 95.9977 -16.9986 0c-101.001,0 -175.005,-46.9999 -212.998,-129.004l-11.0048 122.003 -68.0024 0 0 -500 100.002 0 0 219.999c0,109.999 51.0038,191.004 169.003,191.004l39.999 0z"/>
  </font>
</defs>
</svg>
